Print and download Wonderland by Night sheet music by Bert Kaempfert. ") In Europe, it was a huge hit. We sell over half a million new and used CDs, DVDs, Blu-Rays, Games and Vinyl, spanning all kinds of genres and consoles, with prices starting from just £1. Bert Kaempfert wurde im damaligen Hamburger Stadtteil Barmbek (heute Barmbek-Nord) geboren und begann im Alter von sechs Jahren mit dem Klavierspiel. Disneyland Hotel Water Falls One of my favorite places to go! Wonderland By Nigth - Billy Vaughn Wonderland By Night - Bert Kaempfert See more. Chords indications, lyrics may be included. Now and Forever - Bert Kaempfert And His Orchestra. Bert Kaempfert (born Berthold Kämpfert; 16 October 1923 21 June 1980) was a German orchestra leader and songwriter. " And shockingly. Bert kaempfert wonderland by night keyword after analyzing the system lists the list of keywords related and the list of websites with related content, in addition you can see which keywords most interested customers on the this website. A student at the Hamburg School of Music, he was hired by bandleader Hans Busch and played with that orchestra before enlisting in the German Navy during World War II, where he served as a musician. He made easy listening and jazz-oriented records and wrote the music for a number of well-known songs, including "Strangers in the Night" and "Moon Over Naples". Wonderland By Night (Bert Kaempfert) Sheet Music Download and Print. Bert Kaempfert. Bert Kaempfert free music download. Windmills of Your Mind - Allison Moyet. Wonderland by Night was Bert Kaempfert's first big international success -- propelled by the presence of the number one charting title track, a moody, wistful instrumental authored by Klaus Gunter-Neumann that recalled the late big band era, it also reached the top spot on the American charts and became a favorite of middle-brow listeners just getting into the new innovations of hi-fi and stereo. Kaempfert's own first hit with his orchestra had been in 1960, with Wonderland by Night. PERFORMER "Bert Kaempfert" REM COMPOSER "" INDEX 01 00:00:00 TRACK 02 AUDIO TITLE "Wonderland By Night" PERFORMER "Bert Kaempfert" REM COMPOSER "" INDEX 00 02:08:23 FILE "02. Sylvia Vrethammar; Spanish Eyes Splendido Hotel 1980 Al Di Meola; Spanish Eyes Music for Libra 1983 James Last Orchestra; Spanish Eyes Melodien, die man nie vergißt 1983 Bert Kaempfert; Spanish Eyes Spanish Eyes 1983 Bert Kaempfert & His Orchestra; Spanish Eyes Beautiful. Bert Kaempfert (also Kämpfert) (b. Strangers In The Night Exchanging glances Wond'ring in the night What were the chances We'd be sharing love Before the night was through As Snyder recalled it, they took two weeks over the song, working it out round the piano, him, Kaempfert and Singleton. Wunderland Bei Nacht (C) 2012 Bert Kaempfert Music Publishing GmbH, under exclusive license to Universal Music Strategic Marketing - a division of Universal Music GmbH. Bert Kaempfert (born Berthold Kämpfert; 16 October 1923 – 21 June 1980) was a German orchestra leader and songwriter. Louis Blues by W. High Quality and Interactive, Transpose it in any key, change the tempo, easy play & practice. One Lonely Night. Watch the music video and discover trivia about this classic Pop song now. : G, A, D, Bb. Spanish Eyes In Concert 1979 Bert Kaempfert & His Orchestra feat. Wonderland by Night Lyrics: Stars hang suspended / Above a floating yellow moon / Two hearts were blended / While angels sang a lover's tune / And so we kissed / Not knowing if our hearts would. Bert Kaempfert And His Orchestra - Tudo Isto é Fado [Songtext anzeigen] 48: Bert Kaempfert And His Orchestra - Midsummer Night in Gotland [Songtext anzeigen] 49: Bert Kaempfert And His Orchestra - Wonderland by Night [Songtext anzeigen] 50: Bert Kaempfert And His Orchestra - Cherokee (Indian Love Call) [Songtext anzeigen]. With A Sound In My Heart (Bert Kaempfert And His Orchestra) Wonderland - 50 Original Recordings Wonderland By Night (Bert Kaempfert And His Orchestra) Wonderland By Night (Bert Kaempfert & sein Orchester) Wonderland By Night (Bert Kaempfert & His Orchestra) Wonderland By Night [1980] Yesterday And Today (Bert Kaempfert And His Orchestra). 86: Tootie Flutie (Bert Kaempfert And His Orchestra) 7: 4. Read honest and unbiased product reviews from our users. [C D G Am] Chords for That Happy Feeling - Bert Kaempfert with capo transposer, play along with guitar, piano, ukulele & mandolin. Chords: Eb, Ab, Bb, C. there is about one or two hit tracks and the rest is made up of recordings that don't mean muchBUT this one delivers the goodsI remember buying "Wonderland By Night" (to give it the English title) on a 45rpm quite a number of years agoeven had a stab at writing lyrics for itcan't remember what they were and must have got throw. 87: Red Roses For A Blue Lady (Bert Kaempfert And His Orchestra) 28: 4. He made easy listening and jazz-oriented records, and wrote the music for a number of well-known songs, such as "Strangers in the Night" and "Spanish Eyes". Instrumental. " He was unable to find a German record company to record his single and accompanying album. Now and Forever - Bert Kaempfert And His Orchestra. Bert Kaempfert Sleigh Ride lyrics & video : Just hear those sleigh bells jingling, ring ting tingling too Come on, it's lovely weather for a sleigh ride together with you Outsi. Piano/Vocal/Guitar Songbook. For many, instrumental Christmas albums capture the essence of the holiday spirit, even if the music isn't quite what you'd expect to hear around holiday time. It featured Kaempfert's signature hits. You are listening to the song Red Roses For A Blue Lady by Bert Kaempfert, in album Super Instrumental Vol. SKU: MN0072285. What can you say but "wow. Kaempfert originally used it under the title "Beddy Bye" as part of the instrumental score for the movie A Man Could Get Killed. The World We Knew (Over And Over) (Bert Kaempfert) 10: 4. Includes Album Cover, Release Year, and User Reviews. And, also eventually, some smarmy singers (notably Englebert Humperdinck and Anita Bryant) sang it with lyrics, to which I paid absolutely no. Easy Listening With Bert Kaempert & James Last. This is a list of the top 100 songs of the 1960s in the United States, based exclusively on chart performance on the Billboard Hot 100 from 1960-1969. Get a list of all the new and old songs with lyrics of said bert home directly from our search engine and listen them online. Get a list of all the new and old songs with lyrics of sacred warrior minister by night directly from our search engine and listen them online. 9: Strangers In The Night (Bert Kaempfert And His Orchestra) 31: 4. He made easy listening, jazz-oriented records and his smooth sound has become timeless. Wonderland By Night sheet music. Chords: Eb, Ab, Bb, C. David Monk is a guitarist in Romford, United Kingdom with 705 songs and 4,654,695 views on Fandalism. Roles performed: songwriter, writer, composer, orchestra, producer. Bert Kaempfert in London. Get Bert Kaempfert Wonderland By Night sheet music notes, chords. He was born in Hamburg, Germany, and studied at the School of Music there. Wonderland by Night. All My Tomorrows – Writer(s): Music by Jimmy van Heusen; Words by Sammy Cahn in 1957. Wonderland by Night. Happy Sounds Forever reissues the 1963 album from James Last, the king of "happy music," and adds selections from the catalogue of Bert Kaempfert ("Strangers in the Night") to round out the disc. The Very Best of Bert Kaempfert; Wonderland by Night Lyrics Then came the sunrise, Fading the moon and stars from sight Recalling always Our wonderland by night. He made easy listening and jazz-oriented records and wrote the music for a number of well-known songs, including "Strangers in the Night" and "Moon Over Naples". Wonderland By Night (Bert Kaempfert) Sheet Music Download and Print. The song Wonderland by Night was written by Lincoln Chase, Klaus Günter Neumann and Willi Stanke and was first released by Anita Bryant with Lew Douglas Orchestra & Chorus in 1960. He made easy listening and jazz-oriented records, and wrote the music for a number of well-known songs, such as "Strangers in the Night". 2019- Explora el tablero de shivy21 "BERT KAEMPFERT" en Pinterest. When "Wonderland by Night," an instrumental only slightly more musically interesting than any of Lawrence Welk's saccharine tunes, hit the charts big in 1961, Kaempfert became an overnight success worldwide. 50+ videos Play all Mix - Bert Kaempfert: Wonderland By Night YouTube; Bert Kaempfert & his Orchestra - Snowbird - Duration: 2:09. Anunturi produse audio noi si second hand de vanzare. View credits, reviews, tracks and shop for the 1960 Vinyl release of Wonderland By Night on Discogs. More popular Bert Kaempfert mp3 songs include: A Swingin' Safari, Wonderland By Night Lyrics, That Happy Feeling, Afrikaan Beat Lyrics, Now And Forever, Dreaming The Blues, Cerveza, Catalania, Take Me, Happy Trumpeter, Ducky, Tenderly, Market Day, There I've Said It Again, The Big Build Up, April in Portugal, Skokiaan, Mitternachts Blues, HOLD ME Lyrics. He made easy listening and jazz-oriented records, and wrote the music for a number of well-known songs, such as Strangers in the Night and Spanish Eyes. Find album reviews, stream songs, credits and award information for Biggest Instrumental Hits of the 50s - Various Artists on AllMusic. /LL Cool J Music/Microphone Mafia Publishing (ASCAP) Produced & arranged for Bobcat Music, Inc. Wonderland by Night was Bert Kaempfert's first big international success -- propelled by the presence of the number one charting title track, a moody, wistful instrumental authored by Klaus Gunter-Neumann that recalled the late big band era, it also reached the top spot on the American charts and became a favorite of middle-brow listeners just getting into the new innovations of hi-fi and stereo. High Quality and Interactive, Transpose it in any key, change the tempo, easy play & practice. Bert Kaempfert (also Kämpfert) (b. Transpose, print or convert, download Classical PDF and learn to play Piano score in minutes. He made easy listening and jazz-oriented records, and wrote the music for a number of well-known songs, such as Strangers in the Night and Spanish Eyes. Sheet music arranged for Piano/Vocal/Guitar in D Major (transposable). 9: Strangers In The Night (Bert Kaempfert And His Orchestra) 31: 4. Add lyrics Wonderland by Night/Bert Kaempfert oldies55. Stream ad-free or purchase CD's and MP3s now on Amazon. txt) or view presentation slides online. Browse 76 lyrics and 226 Bert Kaempfert albums. In 1960, Bert Kaempfert composed "Wonderland By Night. Shop wonderland by night sheet music, music books, music scores & more at Sheet Music Plus, the World's Largest Selection of Sheet Music. You are listening to the song Red Roses For A Blue Lady by Bert Kaempfert, in album Super Instrumental Vol. More popular Bert Kaempfert mp3 songs include: A Swingin' Safari, Wonderland By Night Lyrics, That Happy Feeling, Afrikaan Beat Lyrics, Now And Forever, Dreaming The Blues, Cerveza, Catalania, Take Me, Happy Trumpeter, Ducky, Tenderly, Market Day, There I've Said It Again, The Big Build Up, April in Portugal, Skokiaan, Mitternachts Blues, HOLD ME Lyrics. Ver más ideas sobre Luna sobre agua, Musica y Cabello color marron. Lyrics for "Wonderland By Night" "Wonderland By Night" was The Hot 100's #1 song on January 9, January 16. Vocal melody, piano accompaniment, lyrics, chord names, guitar chord diagrams and color photos. In 1970 Johnny Mathis issued a double-LP album set, Sings the Music of Bacharach & Kaempfert, for Columbia. A Swingin. SKU 160321. Bert Kaempfert (also Kämpfert) (b. Format Chords, Tab and Lyrics. Wonderland by Night Bert Kaempfert. Some of the biggest bands and artists of the genre have released holiday songs that were. No ownership of the data is claimed or implied. Full list of Bert Kaempfert songs, sorted alphabetically by name. " I have an old 45 of a song called "Moonlight Love" by Perry Como which started out as Debussy's "Clair De Lune. You can follow any responses to this entry through the RSS 2. He made easy listening and jazz-oriented records, and wrote the music for a number of well-known songs, such as "Strangers in the Night" (originally recorded by Ivo Robić) and "Spanish Eyes". Bert Kaempfert. ; Johnny Mathis; Fausto Papetti; Louis Prima; Nini Rosso; The Starlite Orch. Bert Kaempfert was born on October 16, 1923 as Berthold Heinrich Kampfert in Hamburg, Germany. All My Tomorrows – Writer(s): Music by Jimmy van Heusen; Words by Sammy Cahn in 1957. Bert Kaempfert - Colour Collection (2000) Жанр Jazz-Pop, Easy Listening Носитель CD Год издания 2006 Издатель (лейбл) Polydor/Universal Music Номер по каталогу 984 153-1 Аудиокодек FLAC (*. SKU 160321. One Lonely Night. Bert Kaempfert (born Berthold Kämpfert; 16 October 1923 – 21 June 1980) was a German orchestra leader and songwriter. txt) or view presentation slides online. Bert Kaempfert And His Orch. Gratis ilimitado Bert Kaempfert música - Haga clic para tocar Afrikaan Beat, That Happy Feeling y todo lo que desee. Berthold Heinrich Kämpfert, (16 October 1923 - 21 June 1980), better known as Bert Kaempfert, was a German orchestra leader, music producer, and songwriter. Spanish Eyes Al Martino Words by Eddie Snyder and Charlie Singleton Music by Bert "Wonderland By Night" Kaempfert Peak Billboard position # 15 in Jan. He made easy listening and jazz-oriented records, and wrote the music for a number of well-known songs, such as "Strangers in the Night" and "Spanish Eyes". Wonderland By Night - Bert Kaempfert. Bigband - Free download as PDF File (. Wonderland by Night by K-G Neuman (Brass Quintet) sheet music for Trumpet, French Horn, Trombone, Tuba download free in PDF or MIDI. Bert Kaempfert - Wonderland By Night high quality sheet music available for download. Get free MP3, ♫ lyrics, music videos for your iPhone®. He pitched his demo in New York City. Engelbert Humperdinck "Wonderland By Night": Stars hang suspended Above a floating yellow moon Two hearts were blended While angels sang a lover' Engelbert Humperdinck - Wonderland By Night Lyrics | AZLyrics. Bert Kaempfert - Wonderland by Night. The song was written by Klaus-Günter Neumann with English. Wonderland by Night (Wunderland bei nacht) Songtext von Bert Kaempfert mit Lyrics, deutscher Übersetzung, Musik-Videos und Liedtexten kostenlos auf Songtexte. Chords: Eb, Ab, Bb, C. Wonderland By Night (Bert Kaempfert) Sheet Music Download and Print. The Ray Charles Singers were formed around Ray Charles (2) and featured on Perry Como's records, radio shows and television shows for 35 years. An altered version with background vocals singing "Ring-a-ling-a-ling Ding-dong-ding" and excluding the lyrics "giddy up giddy up let's go" and "The birthday [or] Christmas party at the home of farmer Gray. Bert Kaempfert And His Orchestra new songs, albums, biography, chart history, photos, videos, news, and more on Billboard, the go-to source for what's hot in music. Bert Kaempfert (born Berthold Kämpfert; 16 October 1923 - 21 June 1980) was a German orchestra leade. Wonderland by Night Lyrics by Bert Kaempfert at Lyrics On Demand. Who sings the Jazzy verions of Winter Wonderland? Bert Kaempfert Keahiwai Toby Keith and in Iran they have both night and day)? 4 answers. In 1968 jazz trumpeter Al Hirt recorded the album Al Hirt Plays Bert Kaempfert. Bandleader Bert Kaempfert took Wonderland By Night to #1 for three weeks in 1961 and had a handful of other instrumental hits. Engelbert Humperdinck "Wonderland By Night": Stars hang suspended Above a floating yellow moon Two hearts were blended While angels sang a lover' Engelbert Humperdinck - Wonderland By Night Lyrics | AZLyrics. 21 June 1980) was a German orchestra leader and songwriter. 86: Happy Trumpeter. The band uses a one-note sample of "Wonderland By Night" by the Bert Kaempfert Orchestra right after they mention "Bert Kaempfert's got the mad hits. Internationally renowned bandleader Bert Kaempfert was born in Hamburg, Germany, in 1923. Engelbert Humperdinck "Spanish Eyes": Blue spanish eyes Teardrops are falling from your spanish eyes Please, please don't cry This is just Engelbert Humperdinck - Spanish Eyes Lyrics | AZLyrics. 5 Million songs. Get lyrics of Wonderland by night song you love. Although we left there black and blue Remember when we tried to learn to ski Those two days in London town We yankee doodled all around Rubbed elbows there with all the royal teas We still get so many laughs looking at those photographs Remember when we made these memories Wasn't that some honeymoon I know I won't forget it soon Not if I live to be a hundred years Here's the one we snapped in. Bert Kaempfert. He made easy listening and jazz-oriented records and wrote the music for a number of well-known songs, including “Strangers in the Night” and “Moon Over Naples“. Instead, Kaempfert brought the track to Decca Records in New York, who released it in America in 1959; with its haunting solo trumpet, muted brass, and lush strings, the single topped the American pop charts and turned Bert Kaempfert and Orchestra into. For many, instrumental Christmas albums capture the essence of the holiday spirit, even if the music isn't quite what you'd expect to hear around holiday time. He made easy listening, jazz-oriented records and his smooth sound has become timeless. Bert Kaempfert (born Berthold Kämpfert; 16 October 1923 - 21 June 1980) was a German orchestra leader and songwriter. He made easy listening and jazz-oriented records and wrote the music for a number of well-known songs, including "Strangers in the Night" and "Moon Over Naples ". Bert Kaempfert - Wonderland by Night. For more information about Bert Kaempfert and his music, check out the excellent website (in German and English), Bert Kaempfert Music. In 1968 jazz trumpeter Al Hirt recorded the album Al Hirt Plays Bert Kaempfert. Lyrics to 'Wonderland By Night' by Engelbert Humperdinck. When "Wonderland by Night," an instrumental only slightly more musically interesting than any of Lawrence Welk's saccharine tunes, hit the charts big in 1961, Kaempfert became an overnight success worldwide. "Wonderland by Night," Bert Kaempfert DECCA Bert Kaempfert did indeed have the mad hits, as the Barenaked Ladies once asserted—this German trumpeter and bandleader, who actually served in the fatherland's navy during WWII, ironically kept the sound of the era alive for US veterans with his super smooth arrangements. 87: Red Roses For A Blue Lady (Bert Kaempfert And His Orchestra) 28: 4. Wonderland by Night Lyrics: Stars hang suspended / Above a floating yellow moon / Two hearts were blended / While angels sang a lover's tune / And so we kissed / Not knowing if our hearts would. " Likewise, the 1965 hit "A Lovers Concerto" by the Toys started as a classical piece. In 1967 the Anita Kerr Singers released the LP Bert Kaempfert Turns Us On!, a tribute to Kaempfert featuring the standard hits. Roles performed: songwriter, writer, composer, orchestra, producer. David Monk is a guitarist in Romford, United Kingdom with 705 songs and 4,654,695 views on Fandalism. Lyrics of HOLD ME by Bert Kaempfert: Hold me honey won't you hold he, Hold me never let me go, Take me honey won't you take me, Never to forsake me, 'Cause. Now and Forever - Bert Kaempfert And His Orchestra. Wonderland By Night Words & Music by Klaus-Gunter Neumann & Lincoln Chase Recorded by Bert Kaempfert*, 1961 (#1 for 3 weeks A Edim C#m7-5 D9 E7 Stars hung sus - pen - ded D9 E Bm7-5 E7/6 E7 D9 Fdim A D9 E7 A - bove a float - ing yel - low moon A Edim C#m7-5 D9 E7 Two hearts were blen - ded D9 E7 D9 E7/6 D9 E7sus4 Bm7-5 A While an - gels sang a lov - er's tune. Transpose, print or convert, download Classical PDF and learn to play Piano score in minutes. Wonderland by Night Lyrics by Bert Kaempfert at Lyrics On Demand. He made easy listening and jazz-oriented records, and wrote the music for a number of well-known songs, such as "Strangers in the Night" (originally recorded by Ivo Robić) and "Spanish Eyes". Wonderland By Night (Bert Kaempfert) Sheet Music Download and Print. wav" WAVE INDEX 01 00:00:00 TRACK 09 AUDIO TITLE "Spanish Eyes" PERFORMER "Bert Kaempfert" REM COMPOSER "" INDEX 00 03:13:02 FILE "09. Sheet Music and Tabs for Bert Kaempfert. Windmills of Your Mind - Allison Moyet. 21 June 1980) was a German orchestra leader and songwriter. Add lyrics Wonderland by Night/Bert Kaempfert oldies55. This song is by Bert Kaempfert and features Charly Tabor. Difficulty: medium. A student at the Hamburg School of Music, he was hired by bandleader Hans Busch and played with that orchestra before enlisting in the German Navy during World War II, where he served as a musician. Durch Nutzung dieser Website stimmen Sie der Verwendung von Cookies zu. Lyrics On Demand All lyrics are property and copyright of their respective authors, artists and labels. It, too, featured Kaempfert’s major hits. Wonderland By Night Words & Music by Klaus-Gunter Neumann & Lincoln Chase Recorded by Bert Kaempfert*, 1961 (#1 for 3 weeks A Edim C#m7-5 D9 E7 Stars hung sus - pen - ded D9 E Bm7-5 E7/6 E7 D9 Fdim A D9 E7 A - bove a float - ing yel - low moon A Edim C#m7-5 D9 E7 Two hearts were blen - ded D9 E7 D9 E7/6 D9 E7sus4 Bm7-5 A While an - gels sang a lov - er's tune. Er bot ihn dem New Yorker Produzenten Milt Gabler an, und als Wonderland by Night brachte er Kaempfert nach Veröffentlichung am 22. Who is sorry now – Burt Kaempfert. Gratis ilimitado Bert Kaempfert música - Haga clic para tocar Afrikaan Beat, That Happy Feeling y todo lo que desee. Bert Kaempfert - Wonderland by Night Lyrics | SongMeanings. Bandleader Bert Kaempfert took Wonderland By Night to #1 for three weeks in 1961 and had a handful of other instrumental hits. Features Song Lyrics for Bert Kaempfert's Wonderland By Night album. 2019- Explora el tablero de shivy21 "BERT KAEMPFERT" en Pinterest. txt) or view presentation slides online. Saved searches. This version became a gold record. 86: Danke schön (Hildegard Knef & das Orchester Bert Kaempfert) 7: 4. Wonderland By Night - Bert Kaempfert, 1961 Top older rock and pop song lyrics with chords for Guitar, and downloadable PDF. Includes transpose, capo hints, changing speed and much more. Bert Kaempfert (born Berthold Kämpfert; 16 October 1923 - 21 June 1980) was a German orchestra leader and songwriter. Gratis ilimitado Bert Kaempfert música - Haga clic para tocar Afrikaan Beat, That Happy Feeling y todo lo que desee. Начинал играть на фортепиано будучи ребенком, а затем обучался в консерватории «The Hamburg Conservatory of Music». The song featured Charly Tabor on trumpet. Bert Kaempfert And His Orchestra new songs, albums, biography, chart history, photos, videos, news, and more on Billboard, the go-to source for what's hot in music. Free Download Bert Kaempfert - Christmas Wonderland (1963) Retail CD Covers and Album Art available on AllCDCovers. Get free MP3, ♫ lyrics, music videos for your iPhone®. Bert Kaempfert (German orchestra leader, producer and songwriter) (tracks 4, 6, 11-12) Wonderland by Night (English lyrics) (track 1). Lucia Altieri: Un'altra interprete di musica leggera, torinese ma pugliese di origine, con un buon seguito negli anni '60, con all'attivo oltre 30 singoli 45 giri tra il 1961 e il 1968 più un LP (e un secondo nel '72) con le etichette Phonocolor, Style e Silver e anche un paio di singoli con la Jolly e La voce del padrone. 5 Million songs. Ver más ideas sobre Luna sobre agua, Musica y Cabello color marron. Bert Kaempfert (born Berthold Kämpfert; 16 October 1923 - 21 June 1980) was a German orchestra leade. Wonderland By Night Words & Music by Klaus-Gunter Neumann & Lincoln Chase Recorded by Bert Kaempfert*, 1961 (#1 for 3 weeks A Edim C#m7-5 D9 E7 Stars hung sus - pen - ded D9 E Bm7-5 E7/6 E7 D9 Fdim A D9 E7 A - bove a float - ing yel - low moon A Edim C#m7-5 D9 E7 Two hearts were blen - ded D9 E7 D9 E7/6 D9 E7sus4 Bm7-5 A While an - gels sang a lov - er's tune. Berthold Heinrich Kämpfert, (16 October 1923 – 21 June 1980), better known as Bert Kaempfert, was a German orchestra leader, music producer, and songwriter. RAY CONNIFF - SPANISH EYES. Ssh! It's Bert Kaempfert & His Orchestra (1959) Combo Capers (1960) Wonderland by Night (1960) The Wonderland of Bert Kaempfert (1961) Dancing In Wonderland (1961) Solitude (1962) Afrikaan Beat And Other Favorites (1962) With A Sound In My Heart (1962) A Swingin' Safari (1962) That Happy Feeling (1962) 90 Minuten nach Mitternacht (1962. The conductor, music producer, arranger and composer Bert Kaempfert with his finest works including "Wonderland by Night", the first number 1 hit in the United States produced by a German. Bigband - Free download as PDF File (. The song featured Charly Tabor on trumpet. Using MelodList. In 1960, Bert Kaempfert composed "Wonderland By Night. Kaempfert's own first hit with his orchestra had been in 1960, "Wonderland by Night". It featured Kaempfert's signature hits. Roles performed: songwriter, writer, composer, orchestra, producer. Find Rod McKuen credit information on AllMusic. But seriously, this is nicely executed, safe, uncompelling but appealing pop music wallpaper from that period when the s were ending but the s hadn't really begun. Wonderland by Night. Full list of Bert Kaempfert songs, sorted alphabetically by name. Wonderland by Night Songtext von Bert Kaempfert mit Lyrics, deutscher Übersetzung, Musik-Videos und Liedtexten kostenlos auf Songtexte. #1 rated music site. Welcome to the Good Life Music of Bert Kaempfert. And that was just the start, as the moving trumpet solo, muted brass and sumptuous strings of 'Wonderland By Night' went to the top of the charts in American in January 1961. He made easy listening and jazz-oriented records, and wrote the music for a number of well-known songs, such as "Strangers in the Night". (One of the songwriters was Bert Kaempfert, the German jazz bandleader who'd hit #1 earlier in 1961 with "Wonderland By Night. Berthold Heinrich Kämpfert, (16 October 1923 - 21 June 1980), better known as Bert Kaempfert, was a German orchestra leader, music producer, and songwriter. Bert Kaempfert - Wonderland by Night Lyrics | SongMeanings. Check out our article on the current Tapped Out Treehouse of Horror event. "Jimi Hendrix included the melody of "Strangers in the Night" in his improvised guitar solo for his famous guitar-burning version of "Wild Thing" at the 1967 Monterey Pop Festival. This entry was posted on August 5, 2017 at 4:36 pm and is filed under 341 Great Songs!. PERFORMER "Bert Kaempfert" REM COMPOSER "" INDEX 01 00:00:00 TRACK 02 AUDIO TITLE "Wonderland By Night" PERFORMER "Bert Kaempfert" REM COMPOSER "" INDEX 00 02:08:23 FILE "02. View Product and Order $14. In 1967 the Anita Kerr Singers released the LP Bert Kaempfert Turns Us On!, a tribute to Kaempfert, featuring the standard hits. David Monk is a guitarist in Romford, United Kingdom with 705 songs and 4,654,695 views on Fandalism. This song is by Bert Kaempfert and features Charly Tabor. Bert Kaempfert (born Berthold Kämpfert; 16 October 1923 – 21 June 1980) was a German orchestra leader and songwriter. View credits, reviews, tracks and shop for the 1960 Vinyl release of Wonderland By Night on Discogs. música - Clique para tocar A Wink and a Smile, I Could Write a Book e o que mais você desejar! Joseph Harry Fowler Connick, Jr. Windmills of Your Mind - All Angels. Wonderland by Night Lyrics: Stars hang suspended / Above a floating yellow moon / Two hearts were blended / While angels sang a lover's tune / And so we kissed / Not knowing if our hearts would. Wonderland by Night Songtext von Bert Kaempfert mit Lyrics, deutscher Übersetzung, Musik-Videos und Liedtexten kostenlos auf Songtexte. He made easy listening and jazz-oriented records and wrote the music for a number of well-known songs, including "Strangers in the Night" and "Moon Over Naples". Tracklist with lyrics of the album APRIL IN PORTUGAL/WONDERLAND BY NIGHT [1999] from Bert Kaempfert: Sempre Que Lisboa Canta - Fora de Portas - Tudo Isto E. MemorialsBert-Kaempfert-Platz, in the Barmbek district of Hamburg, Germany, is named in his honour. Piano/Vocal/Guitar Songbook. Wonderland By Night (Bert Kaempfert) Sheet Music Download and Print. Berthold Heinrich Kämpfert, (16 October 1923 – 21 June 1980), better known as Bert Kaempfert, was a German orchestra leader and songwriter. BERT KAEMPFERT was one of the few German orchestra leaders to achieve a lasting worldwide success. Internationally renowned bandleader Bert Kaempfert was born in Hamburg, Germany, in 1923. A lyric in that song states that "Bert Kaempfert's got the mad hits. One month later on December 19th the song entered Billboard's Top 100 chart at position #78, the following week it was at #61, and then on it's third and final week on the chart it peaked at #49 Between 1959 and 1964 the Brooklyn, NY brothers had six records on the Top 100 chart, one made the Top. Chords for engelbert humperdinck - wonderland by night. More popular Bert Kaempfert mp3 songs include: A Swingin' Safari, Wonderland By Night Lyrics, That Happy Feeling, Afrikaan Beat Lyrics, Now And Forever, Dreaming The Blues, Cerveza, Catalania, Take Me, Happy Trumpeter, Ducky, Tenderly, Market Day, There I've Said It Again, The Big Build Up, April in Portugal, Skokiaan, Mitternachts Blues, HOLD ME Lyrics. (born September 11, 1967) is an American singer, big-band leader/co. When "Wonderland by Night," an instrumental only slightly more musically interesting than any of Lawrence Welk's saccharine tunes, hit the charts big in 1961, Kaempfert became an overnight success worldwide. Add lyrics Unchained Melody (relaxing music) - Pan Pipe moods2 Wonderland by Night/Bert Kaempfert oldies55. Full music credits for Bert Kaempfert: 147 performances. High Quality and Interactive, Transpose it in any key, change the tempo, easy play & practice. Every December Billboard publishes a chart listing the year's top songs based on their cumulative chart performance in the United States. [F C Bb Ab Cm G Gm Dm Bbm Eb] Chords for Blue Moon-Bert Kaempfert and Orchestra with capo transposer, play along with guitar, piano, ukulele & mandolin. Search query Search Twitter. Bert Kaempfert (born Berthold Kämpfert; 16 October 1923 - 21 June 1980) was a German orchestra leader and songwriter. wav" WAVE TRACK 01 AUDIO TITLE "Wonderland By Night" PERFORMER "Bert Kaempfert" REM COMPOSER "" PREGAP 00:00:33 INDEX 01 00:00:00 TRACK 02 AUDIO TITLE "A Swingin' Safari" PERFORMER "Bert Kaempfert" REM COMPOSER "" INDEX 00 03:13:00 FILE "02. Portal about top country music - discographies, albums, covers, songs, lyrics and more. Discover releases, reviews, track listings, recommendations, and more about Bert Kaempfert And His Orchestra* - Wonderland By Night at Discogs. Chordify is your #1 platform for chords. Wonderland by Night was Bert Kaempfert's first big international success -- propelled by the presence of the number one charting title track, a moody, wistful instrumental authored by Klaus Gunter-Neumann that recalled the late big band era, it also reached the top spot on the American charts and became a favorite of middle-brow listeners just getting into the new innovations of hi-fi and stereo. Wonderland By Night sheet music. Check out Wonderland By Night by Bert Kaempfert on Amazon Music. Wonderland by Night Songtext von Bert Kaempfert mit Lyrics, deutscher Übersetzung, Musik-Videos und Liedtexten kostenlos auf Songtexte. Some of you may recall my post about the Bert Kaempfert biography "Strangers in the night - the Bert Kaemfert Story" that came out (in German) a couple of years back. Wonderland By Night. If you’re looking for something new to listen to, watch or play, look no further than the musicMagpie Store. Chords for engelbert humperdinck - wonderland by night. He made easy listening and jazz-oriented records, and wrote the music for a number of well-known songs, such as "Strangers in the Night" and "Spanish Eyes". He made easy listening and jazz-oriented records and wrote the music for a number of well-known songs, including “Strangers in the Night” and “Moon Over Naples“. High Quality and Interactive, Transpose it in any key, change the tempo, easy play & practice. The Very Best of Bert Kaempfert; Wonderland by Night Lyrics Then came the sunrise, Fading the moon and stars from sight Recalling always Our wonderland by night. Chords: A#7, D#, B, E. Releases include: My Bonnie (Tony Sheridan and The Beat Brothers), Sings the Music of Bacharach and Kaempfert (Johnny Mathis), My Bonnie / The Saints (Tony Sheridan & The Beat Brothers). By the time "A Swingin' Safari," "Afrikan Beat," "Blue Midnight," and "Happy Trumpeter" were released as singles, Kaempfert became a. ; Johnny Mathis; Fausto Papetti; Louis Prima; Nini Rosso; The Starlite Orch. Bert Kaempfert - Colour Collection (2000) Жанр Jazz-Pop, Easy Listening Носитель CD Год издания 2006 Издатель (лейбл) Polydor/Universal Music Номер по каталогу 984 153-1 Аудиокодек FLAC (*. Top Songs By Bert. Top 150 Instrumentale hits Samengesteld door Hitsallertijden. "Wonderland by Night" is a popular song by Bert Kaempfert that was a Billboard number one hit for three weeks, starting January 9, 1961. Lyrics & Chords of Wonderland By Night by Bert Kaempfert from album Red Roses, Stars hang suspended Above a floating yellow moon Two hearts were blended While angels sang a lover& - get pdf, listen similar. Who is sorry now – Burt Kaempfert. Берт Каемпферт (Berthold Kaempfert) родился 16 октября 1923 года в Гамбурге, Германия. Play along with guitar, ukulele, or piano with interactive chords and diagrams. 37 bildschöne Seiten. Vocal melody, piano accompaniment, lyrics, chord names, guitar chord diagrams and color photos. // By continuing to visit this site you agree to our use of cookies. Bert Kaempfert, Soundtrack: Eight Legged Freaks. 86: Happy Trumpeter. Said bert home lyrics Songs with said bert home lyrics all the songs about said bert home. Wonderland By Night. He made easy listening and jazz-oriented records and wrote the music for a number of well-known songs, including "Strangers in the Night" and "Moon Over Naples". 86 MB Bert Kaempfert - 1978 - Bert Kaempfert And His Orchestra - 02 - Red Roses For A Blue Lady. Internationally renowned bandleader Bert Kaempfert was born in Hamburg, Germany, in 1923. Lyrics to 'Wonderland By Night' by Engelbert Humperdinck. 16 October 1923 - d. Wunderland bei Nacht ist der Titel eines instrumentalen Musikstücks, das von Klaus Günter Neumann als Blues komponiert wurde. A Swingin. Bert Kaempfert free music download. Wonderland By Night (Wunderland bei Nacht) Help me Choose *Version. Includes Album Cover, Release Year, and User Reviews. Listen to Sleigh Ride online for free. View credits, reviews, tracks and shop for the 1961 Vinyl release of The Wonderland Of Bert Kaempfert on Discogs. Durch Nutzung dieser Website stimmen Sie der Verwendung von Cookies zu. ZZ ww ee ii tt aa uu ss ee nn dd ee ii nn ss. pdf), Text File (. Stars hang suspended Above a floating yellow moon Two hearts were blended While angels sang a lover's tune. Bert Kaempfert (born Berthold Kämpfert; 16 October 1923 - 21 June 1980) was a German orchestra leade. Many of his tunes became better known as hits for other artists: "Strangers in the Night" (with words by Charles Singleton and Eddie Snyder), was originally recorded as part of his score for the 1965 film A Man Could Get Killed. Chords for Bert Kaempfert -- Wonderland By Night. Happy Sounds Forever reissues the 1963 album from James Last, the king of "happy music," and adds selections from the catalogue of Bert Kaempfert ("Strangers in the Night") to round out the disc. Wonderland by Night couldn't get a hearing in Germany. "Wonderland by Night" (German title "Wunderland bei Nacht") is a popular song by Bert Kaempfert that was a Billboard number one hit for three weeks, starting January 9, 1961. Chords: Eb, Ab, Bb, C. Bert Kaempfert (born Berthold Kämpfert; 16 October 1923 - 21 June 1980) was a German orchestra leader and songwriter.